DNS SERVER ÄNDERN, um der staatlichen Zensur zu entgehen. Sollten wir von eurem Provider gesperrt werden, nutzt den TOR BROWSER oder ändert euren DNS SERVER.

Filmwünsche können bei uns im Forum abgegeben werden

Wir Speichern Nicht




 
 
 
Top Releases
Gundermann.2018.GERMAN.COMPL...
Western.2017.German.1080p.Bl...
Western.2017.German.720p.Blu...
303.German.1080p.BluRay.x264...
303.2018.GERMAN.COMPLETE.BLU...
303.German.720p.BluRay.x264-...
Mile.22.2018.MULTI.COMPLETE....
Dog.Days.2018.MULTI.COMPLETE...
Mile.22.2018.German.DL.1080p...
Mile.22.2018.German.720p.Blu...

Cinedubs
Aquaman.2018.German.DL.AC3.D...
Aquaman.2018.German.DL.AC3.D...
Siberia.2018.German.AC3D.WEB...
Siberia.2018.German.AC3D.WEB...
Climax.2018.German.DL.AC3.10...
Climax.2018.German.DL.AC3.72...
Mortal.Engines.Krieg.der.Sta...
Mortal.Engines.Krieg.der.Sta...
Der.Grinch.2018.German.DL.AC...
Der.Grinch.2018.German.DL.AC...

Neuerscheinungen 2018-19
So.was.von.da.2018.GERMAN.CO...
Keepers.Die.Leuchtturmwaerte...
Gundermann.German.1080p.BluR...
Keepers.Die.Leuchtturmwaerte...
Keepers.Die.Leuchtturmwaerte...
So.was.von.da.German.1080p.B...
So.was.von.da.German.720p.Bl...
Gundermann.German.720p.BluRa...
Superfly.2018.MULTi.COMPLETE...
Superfly.German.720p.BluRay....

XXX
Booty.Jackin.6.2017.XXX.1080...
ErotiqueTVLive.18.05.04.Audr...
ErotiqueTVLive.18.05.11.Viol...
ErotiqueTVLive.18.05.19.Kate...
FirstAnalQuest.19.01.01.Deni...
Made.to.Tit.Fuck.2013.XXX.10...
Milfs.Like.It.Rough.2014.XXX...
NinaKayy.18.01.18.Hot.Tub.Fu...
NinaKayy.18.01.30.Taking.A.R...
Public.Anal.Amateurs.Spread....
Tushy.19.01.01.Brett.Rossi.X...
X-Sensual.18.12.16.Marselina...
Accidentally.Lesbian.4.2017....
Cute.And.Tight.Holes.2016.XX...
Her.Sweet.Asshole.Gets.Re.si...
Hot.Wife.Stories.2017.XXX.10...
The.House.Of.Sin.2014.XXX.72...
Trouble.X.2.2016.XXX.720p.HD...
Value.10.Real.Massive.Racks....
White.18.Yo.Mistresses.For.B...

3D
Die.Reise.zum.Mittelpunkt.de...
Die.Reise.zum.Mittelpunkt.de...
Die.Reise.zum.Mittelpunkt.de...
Kaluoka.Hina.Das.Zauberriff....
Blade.Runner.2049.3D.2017.Ge...
Walhalla.Rising.3D.2009.DUAL...
Sleepwalker.3D.2011.DUAL.COM...
Bis.an.die.Grenzen.des.Unive...
Best.of.3D.vol.13.-.15.GERMA...
Limbradur.und.die.Magie.der....
Kaluoka.Hina.Das.Zauberriff....
Limbradur.und.die.Magie.der....
Smallfoot.3D.2018.COMPLETE.B...
Smallfoot.Ein.eisigartiges.A...
Skyscraper.3D.2018.German.DL...

Old_Stuff
Ip.Man.2.2010.German.DTS.108...
Todfreunde.aka.Bad.Influence...
Animatrix.2003.German.DL.108...
Animatrix.2003.German.DL.720...
Akte.X.S06.German.DTS.DL.108...
The.Beauty.of.Gemina.Minor.S...
ZZ.Top.Live.from.Texas.2008....
Peter.Hase.2018.German.DL.10...
Akte.X.S05.German.DTS.DL.108...
Akte.X.S04.German.DTS.DL.108...
Akte.X.S03.German.DTS.DL.108...
Dunkirk.1958.COMPLETE.BLURAY...
Das.Wunder.von.Manhattan.199...
The.Amazing.Spiderman.2.Rise...
Rise.of.the.Predator.2014.Ge...

Filme
Elmer.Brain.Damage.1988.Germ...
Room.104.S02.German.DD51.DL....
Room.104.S02.German.DD51.DL....
Killjoys.S04.GERMAN.DL.1080p...
Killjoys.S04.GERMAN.DL.720p....
9.1.1.S02.GERMAN.DL.1080p.HD...
9.1.1.S02.GERMAN.DL.720p.HDT...
Dog.Days.2018.German.DL.1080...
Muellers.Buero.1986.German.1...
Muellers.Buero.1986.German.7...
Der.Untergang.2004.German.10...
Kindeswohl.2018.German.DL.10...
Ein.Dorf.zieht.blank.German....
The.Good.Doctor.S02.German.D...
The.Good.Doctor.S02.German.D...
NCIS.S16.GERMAN.DL.DUBBED.10...
NCIS.S16.GERMAN.DUBBED.720p....
Loooser.How.to.win.and.lose....
Generation.Sputnik.Das.golde...
Kubrick.Nixon.und.der.Mann.i...
Mega.Event.Skispringen.-.Wel...
Hund.und.Mensch.Das.Geheimni...
City.Slickers.1991.Remastere...
Metropolis.1927.Remastered.B...

 
 
The.Originals.S05.COMPLETE.GERMAN.720p.HDTV.x264-ACED

Jahr: 2018
Genre: Drama | Fantasy | Horror
Sprache: Deutsch AC3
Laufzeit: 40min je Folge
Bitrate: 2000 Kbps
Format: MKV
Größe: 700 MB je Folge
Release:

Beschreibung:

In „The Originals“ ist ein Spin-off der Serie „The Vampire Diaries“ in der die drei mächtigen Mikaleson-Geschwister Klaus (Joseph Morgan), Elijah (Daniel Gillies) und Rebekah (Claire Holt) im Mittelpunkt stehen. Die Mikaelsons waren die ersten Vampire und heißen deshalb Originals. Nachdem sie ihr Unwesen in Mystic Falls getrieben haben, wird die Handlung nach New Orleans verlagert, eine Stadt, die Klaus seinerzeit offenbar mitgegründet hat. Dort trifft der Hybrid auf jemanden aus seiner Vergangenheit: seinem ehemaligen Protegé Marcel Charles Michael Davis, der das ungekrönte Oberhaupt der übernatürlichen Kreaturen von New Orleans ist.

 

enthaltene Folgen (Staffel komplett):

The.Originals.S05E01.GERMAN.720p.HDTV.x264-ACED

The.Originals.S05E02.GERMAN.720p.HDTV.x264-ACED 

The.Originals.S05E03.GERMAN.720p.HDTV.x264-ACED

The.Originals.S05E04.GERMAN.720p.HDTV.x264-ACED

The.Originals.S05E05.GERMAN.720p.HDTV.x264-ACED

The.Originals.S05E06.GERMAN.720p.HDTV.x264-ACED

The.Originals.S05E07.GERMAN.720p.HDTV.x264-ACED 

The.Originals.S05E08.GERMAN.720p.HDTV.x264-ACED

The.Originals.S05E09.GERMAN.720p.HDTV.x264-ACED

The.Originals.S05E10.GERMAN.720p.HDTV.x264-ACED

The.Originals.S05E11.GERMAN.720p.HDTV.x264-ACED

The.Originals.S05E12.GERMAN.720p.HDTV.x264-ACED

The.Originals.S05E13.GERMAN.720p.HDTV.x264-ACED NEU



General
Complete name                            : The.Originals.S05E01.GERMAN.720p.HDTV.x264-ACED\The.Originals.S05E01.GERMAN.720p.HDTV.x264-ACED.mkv
Format                                   : Matroska
Format version                           : Version 4 / Version 2
File size                                : 700 MiB
Duration                                 : 39mn 44s
Overall bit rate                         : 2 464 Kbps
Encoded date                             : UTC 2018-09-29 19:08:21
Writing application                      : mkvmerge v26.0.0 ('In The Game') 64-bit
Writing library                          : libebml v1.3.6 + libmatroska v1.4.9

Video
ID                                       : 1
Format                                   : AVC
Format/Info                              : Advanced Video Codec
Format profile                           : High@L4.1
Format settings, CABAC                   : Yes
Format settings, ReFrames                : 5 frames
Codec ID                                 : V_MPEG4/ISO/AVC
Duration                                 : 39mn 44s
Bit rate                                 : 2 031 Kbps
Width                                    : 1 280 pixels
Height                                   : 720 pixels
Display aspect ratio                     : 16:9
Frame rate mode                          : Constant
Frame rate                               : 25.000 fps
Color space                              : YUV
Chroma subsampling                       : 4:2:0
Bit depth                                : 8 bits
Scan type                                : Progressive
Bits/(Pixel*Frame)                       : 0.088
Stream size                              : 577 MiB (82%)
Writing library                          : x264 core 155 r2901 7d0ff22
Encoding settings                        : cabac=1 / ref=5 / deblock=1:-3:-3 / analyse=0x3:0x113 / me=umh / subme=9 / psy=1 / psy_rd=1.00:0.00 / mixed_ref=1 / me_range=16 / chroma_me=1 / trellis=2 / 8x8dct=1 / cqm=0 / deadzone=21,11 / fast_pskip=0 / chroma_qp_offset=-2 / threads=18 / lookahead_threads=1 / sliced_threads=0 / nr=0 / decimate=1 / interlaced=0 / bluray_compat=0 / constrained_intra=0 / bframes=3 / b_pyramid=2 / b_adapt=2 / b_bias=0 / direct=3 / weightb=1 / open_gop=0 / weightp=2 / keyint=250 / keyint_min=25 / scenecut=40 / intra_refresh=0 / rc_lookahead=50 / rc=crf / mbtree=1 / crf=18.0 / qcomp=0.60 / qpmin=0 / qpmax=69 / qpstep=4 / ip_ratio=1.40 / aq=1:1.00
Language                                 : English
Default                                  : Yes
Forced                                   : No

Audio
ID                                       : 2
Format                                   : AC-3
Format/Info                              : Audio Coding 3
Mode extension                           : CM (complete main)
Format settings, Endianness              : Big
Codec ID                                 : A_AC3
Duration                                 : 39mn 44s
Bit rate mode                            : Constant
Bit rate                                 : 384 Kbps
Channel(s)                               : 6 channels
Channel positions                        : Front: L C R, Side: L R, LFE
Sampling rate                            : 48.0 KHz
Bit depth                                : 16 bits
Compression mode                         : Lossy
Stream size                              : 109 MiB (16%)
Language                                 : German
Default                                  : Yes
Forced                                   : No



Download:
Share-Online.biz Share-Online.bizShare-Online.bizShare-Online.biz | Rapidgator.net Rapidgator.netRapidgator.netRapidgator.net
 

Kommentare